2Wmmu1MkqxJ48J7aySET9EKEjXz

Running Man 2011 Full Episode

118 votes, average 8.5 out of 10

Sinopsis Running Man 2011 Full Episode

Running Man (bahasa Korea: 런닝맨) adalah sebuah acara varietas dari Korea Selatan. Pertama kali ditayangkan tanggal 11 Juli 2010 di SBS.[1] Pembawa acara sekaligus pemainnya adalah Yoo Jae-suk.[2] Acara ini menampilkan beberapa permainan yang dilakukan per tim, dapat 2 tim, 3 tim maupun 4 tim. Kadang seseorang berbuat curang untuk dapat memenangkan permainan, namun Production Team (PD) sering menyatakan bahwa pelanggaran itu tidak sah. Di antara pemain ini, terdapat juga VJ, yang selalu mendampingi pemain dalam jalannya permainan.

Acara ini menjadi populer di sejumlah negara Asia lain di luar Korea, dan telah mendapatkan popularitas secara daring di kalangan penggemar Hallyu, yang telah dialihbahasakan ke dalam beberapa bahasa oleh pemirsa internasional, seperti Bahasa Inggris, Spanyol, Portugis, Prancis, Italia, Thailand, Vietnam, Mandarin, Malaysia, Indonesia, Burma, Arab, Rusia, dan Turki.[3][4]

Acara ini berhasil masuk dalam daftar 20 Acara TV Terpopuler pada tahun 2016 versi Business Insider.[5]

Sejak April 2017, Running Man ditayangkan sebagai bagian pertama Good Sunday pada pukul 4:50 sore KST dan berkompetisi dengan program The Return of Superman dari KBS2 dan King of Mask Singer dari MBC.[6] Running Man sebelumnya tayang pada pukul 6:25 malam KST pada hari Minggu, sebagai bagian kedua Good Sunday, yang ditayangkan setelah Flower Crew, berkompetisi dengan 1 Night 2 Days dari KBS2 dan Secretly Greatly dari MBC.

CATATAN: SEMUA EPISODE RESOLUSI 720P (.AVI) & SEMUA FILE LEBIH DARI 1GB/EPISODE

CLICK TO SHOW MEDIAINFO
$ mediainfo \[drakoraw.my.id\]Running\ Man\ Episode\ 024\[x264\]\[720p\].avi                                                                                                                        
General
Complete name                            : [drakoraw.my.id]Running Man Episode 024[x264][720p].avi
Format                                   : AVI
Format/Info                              : Audio Video Interleave
File size                                : 1.37 GiB
Duration                                 : 1 h 12 min
Overall bit rate                         : 2 716 kb/s
Writing application                      : VirtualDubMod 1.5.10.2 (build 2540/release)
Writing library                          : VirtualDubMod build 2540/release

Video
ID                                       : 0
Format                                   : AVC
Format/Info                              : Advanced Video Codec
Format profile                           : [email protected]
Format settings                          : CABAC / 2 Ref Frames
Format settings, CABAC                   : Yes
Format settings, ReFrames                : 2 frames
Codec ID                                 : H264
Duration                                 : 1 h 12 min
Bit rate                                 : 2 500 kb/s
Width                                    : 1 280 pixels
Height                                   : 720 pixels
Display aspect ratio                     : 16:9
Frame rate                               : 29.970 (30000/1001) FPS
Color space                              : YUV
Chroma subsampling                       : 4:2:0
Bit depth                                : 8 bits
Scan type                                : Progressive
Bits/(Pixel*Frame)                       : 0.091
Stream size                              : 1.27 GiB (93%)
Writing library                          : x264 core 50 svn-569
Encoding settings                        : cabac=1 / ref=1 / deblock=1:0:0 / analyse=0x3:0x113 / me=hex / subme=5 / brdo=0 / mixed_ref=0 / me_range=16 / chroma_me=1 / trellis=1 / 8x8dct=1 / cqm=0 / chroma_qp_offset=0 / slices=1 / nr=0 / decimate=1 / bframes=2 / b_pyramid=0 / b_adapt=1 / b_bias=0 / direct=2 / wpredb=1 / bime=0 / keyint=250 / keyint_min=25 / scenecut=40 / rc=abr / bitrate=2500 / ratetol=1.0 / rceq='blurCplx^(1-qComp)' / qcomp=0.60 / qpmin=10 / qpmax=51 / qpstep=4 / ip_ratio=1.40 / pb_ratio=1.30

Audio
ID                                       : 1
Format                                   : AC-3
Format/Info                              : Audio Coding 3
Codec ID                                 : 2000
Duration                                 : 1 h 12 min
Bit rate mode                            : Constant
Bit rate                                 : 192 kb/s
Channel(s)                               : 2 channels
Channel positions                        : Front: L R
Sampling rate                            : 48.0 kHz
Frame rate                               : 31.250 FPS (1536 SPF)
Bit depth                                : 16 bits
Compression mode                         : Lossy
Stream size                              : 99.4 MiB (7%)
Alignment                                : Aligned on interleaves
Interleave, duration                     : 33  ms (1.00 video frame)
Interleave, preload duration             : 512  ms
Service kind                             : Complete Main

Running Man 2011 Full Episode

Variety Show Running Man 24 Subtitle Indonesia
SubtitleIndonesia | English
Variety Show Running Man 25 Subtitle Indonesia
SubtitleIndonesia | English
Variety Show Running Man 26 Subtitle Indonesia
SubtitleIndonesia | English
Variety Show Running Man 27 Subtitle Indonesia
SubtitleIndonesia | English
Variety Show Running Man 28 Subtitle Indonesia
SubtitleIndonesia | English
Variety Show Running Man 29 Subtitle Indonesia
SubtitleIndonesia | English
Variety Show Running Man 30 Subtitle Indonesia
SubtitleIndonesia | English
Variety Show Running Man 31 Subtitle Indonesia
SubtitleIndonesia | English
Variety Show Running Man 32 Subtitle Indonesia
SubtitleIndonesia | English
Variety Show Running Man 33 Subtitle Indonesia
SubtitleIndonesia | English
Variety Show Running Man 34 Subtitle Indonesia
SubtitleIndonesia | English
Variety Show Running Man 35 Subtitle Indonesia
SubtitleIndonesia | English
Variety Show Running Man 36 Subtitle Indonesia
SubtitleIndonesia | English
Variety Show Running Man 37 Subtitle Indonesia
SubtitleIndonesia | English
Variety Show Running Man 38 Subtitle Indonesia
SubtitleIndonesia | English
Variety Show Running Man 39 Subtitle Indonesia
SubtitleIndonesia | English
Variety Show Running Man 40 Subtitle Indonesia
SubtitleIndonesia | English
Variety Show Running Man 41 Subtitle Indonesia
SubtitleIndonesia | English
Variety Show Running Man 42 Subtitle Indonesia
SubtitleIndonesia | English
Variety Show Running Man 43 Subtitle Indonesia
SubtitleIndonesia | English
Variety Show Running Man 44 Subtitle Indonesia
SubtitleIndonesia | English
Variety Show Running Man 45 Subtitle Indonesia
SubtitleIndonesia | English
Variety Show Running Man 46 Subtitle Indonesia
SubtitleIndonesia | English
Variety Show Running Man 47 Subtitle Indonesia
SubtitleIndonesia | English
Variety Show Running Man 48 Subtitle Indonesia
SubtitleIndonesia | English
Variety Show Running Man 49 Subtitle Indonesia
SubtitleIndonesia | English
Variety Show Running Man 50 Subtitle Indonesia
SubtitleIndonesia | English
Variety Show Running Man 51 Subtitle Indonesia
SubtitleIndonesia | English
Variety Show Running Man 52 Subtitle Indonesia
SubtitleIndonesia | English
Variety Show Running Man 53 Subtitle Indonesia
SubtitleIndonesia | English
Variety Show Running Man 54 Subtitle Indonesia
SubtitleIndonesia | English
Variety Show Running Man 55 Subtitle Indonesia
SubtitleIndonesia | English
Variety Show Running Man 56 Subtitle Indonesia
SubtitleIndonesia | English
Variety Show Running Man 57 Subtitle Indonesia
SubtitleIndonesia | English
Variety Show Running Man 58 Subtitle Indonesia
SubtitleIndonesia | English
Variety Show Running Man 59 Subtitle Indonesia
SubtitleIndonesia | English
Variety Show Running Man 60 Subtitle Indonesia
SubtitleIndonesia | English
Variety Show Running Man 61 Subtitle Indonesia
SubtitleIndonesia | English
Variety Show Running Man 62 Subtitle Indonesia
SubtitleIndonesia | English
Variety Show Running Man 63 Subtitle Indonesia
SubtitleIndonesia | English
Variety Show Running Man 64 Subtitle Indonesia
SubtitleIndonesia | English
Variety Show Running Man 65 Subtitle Indonesia
SubtitleIndonesia | English
Variety Show Running Man 66 Subtitle Indonesia
SubtitleIndonesia | English
Variety Show Running Man 67 Subtitle Indonesia
SubtitleIndonesia | English
Variety Show Running Man 68 Subtitle Indonesia
SubtitleIndonesia | English
Variety Show Running Man 69 Subtitle Indonesia
SubtitleIndonesia | English
Variety Show Running Man 70 Subtitle Indonesia
SubtitleIndonesia | English
Variety Show Running Man 71 Subtitle Indonesia
SubtitleIndonesia | English
Variety Show Running Man 72 Subtitle Indonesia
SubtitleIndonesia | English
Variety Show Running Man 73 Subtitle Indonesia
SubtitleIndonesia | English
Variety Show Running Man 74 Subtitle Indonesia
SubtitleIndonesia | English

Genre: Comedy, Reality
Year:
Duration: 85 Min
Country:
Release:
Last Air Date:28 Nov 2021
Number Of Episode:74
Network:
Director:


Leave a Reply

Your email address will not be published. Required fields are marked *