2Wmmu1MkqxJ48J7aySET9EKEjXz

Running Man 2010 Full Episode

118 votes, average 8.5 out of 10

Sinopsis Running Man 2010 Full Episode

Running Man (bahasa Korea: 런닝맨) adalah sebuah acara varietas dari Korea Selatan. Pertama kali ditayangkan tanggal 11 Juli 2010 di SBS.[1] Pembawa acara sekaligus pemainnya adalah Yoo Jae-suk.[2] Acara ini menampilkan beberapa permainan yang dilakukan per tim, dapat 2 tim, 3 tim maupun 4 tim. Kadang seseorang berbuat curang untuk dapat memenangkan permainan, namun Production Team (PD) sering menyatakan bahwa pelanggaran itu tidak sah. Di antara pemain ini, terdapat juga VJ, yang selalu mendampingi pemain dalam jalannya permainan.

Acara ini menjadi populer di sejumlah negara Asia lain di luar Korea, dan telah mendapatkan popularitas secara daring di kalangan penggemar Hallyu, yang telah dialihbahasakan ke dalam beberapa bahasa oleh pemirsa internasional, seperti Bahasa Inggris, Spanyol, Portugis, Prancis, Italia, Thailand, Vietnam, Mandarin, Malaysia, Indonesia, Burma, Arab, Rusia, dan Turki.[3][4]

Acara ini berhasil masuk dalam daftar 20 Acara TV Terpopuler pada tahun 2016 versi Business Insider.[5]

Sejak April 2017, Running Man ditayangkan sebagai bagian pertama Good Sunday pada pukul 4:50 sore KST dan berkompetisi dengan program The Return of Superman dari KBS2 dan King of Mask Singer dari MBC.[6] Running Man sebelumnya tayang pada pukul 6:25 malam KST pada hari Minggu, sebagai bagian kedua Good Sunday, yang ditayangkan setelah Flower Crew, berkompetisi dengan 1 Night 2 Days dari KBS2 dan Secretly Greatly dari MBC.

CATATAN: SEMUA EPISODE RESOLUSI 720P (.AVI) & SEMUA FILE LEBIH DARI 1GB/EPISODE

CLICK TO SHOW MEDIAINFO
$ mediainfo \[drakoraw.my.id\]Running\ Man\ Episode\ 001\[x264\]\[720p\].avi 
General
Complete name                            : [drakoraw.my.id]Running Man Episode 001[x264][720p].avi
Format                                   : AVI
Format/Info                              : Audio Video Interleave
File size                                : 1.67 GiB
Duration                                 : 1 h 28 min
Overall bit rate                         : 2 707 kb/s
Writing application                      : VirtualDubMod 1.5.10.2 (build 2540/release)
Writing library                          : VirtualDubMod build 2540/release

Video
ID                                       : 0
Format                                   : AVC
Format/Info                              : Advanced Video Codec
Format profile                           : [email protected]
Format settings                          : CABAC / 2 Ref Frames
Format settings, CABAC                   : Yes
Format settings, Reference frames        : 2 frames
Codec ID                                 : H264
Duration                                 : 1 h 28 min
Bit rate                                 : 2 500 kb/s
Width                                    : 1 280 pixels
Height                                   : 720 pixels
Display aspect ratio                     : 16:9
Frame rate                               : 29.970 (30000/1001) FPS
Color space                              : YUV
Chroma subsampling                       : 4:2:0
Bit depth                                : 8 bits
Scan type                                : Progressive
Bits/(Pixel*Frame)                       : 0.091
Stream size                              : 1.55 GiB (92%)
Writing library                          : x264 core 50 svn-569
Encoding settings                        : cabac=1 / ref=1 / deblock=1:0:0 / analyse=0x3:0x113 / me=hex / subme=5 / brdo=0 / mixed_ref=0 / me_range=16 / chroma_me=1 / trellis=1 / 8x8dct=1 / cqm=0 / chroma_qp_offset=0 / slices=1 / nr=0 / decimate=1 / bframes=2 / b_pyramid=0 / b_adapt=1 / b_bias=0 / direct=2 / wpredb=1 / bime=0 / keyint=250 / keyint_min=25 / scenecut=40 / rc=abr / bitrate=2500 / ratetol=1.0 / rceq='blurCplx^(1-qComp)' / qcomp=0.60 / qpmin=10 / qpmax=51 / qpstep=4 / ip_ratio=1.40 / pb_ratio=1.30

Audio
ID                                       : 1
Format                                   : AC-3
Format/Info                              : Audio Coding 3
Commercial name                          : Dolby Digital
Codec ID                                 : 2000
Duration                                 : 1 h 28 min
Bit rate mode                            : Constant
Bit rate                                 : 192 kb/s
Channel(s)                               : 2 channels
Channel layout                           : L R
Sampling rate                            : 48.0 kHz
Frame rate                               : 31.250 FPS (1536 SPF)
Compression mode                         : Lossy
Delay relative to video                  : 32 ms
Stream size                              : 122 MiB (7%)
Alignment                                : Aligned on interleaves
Interleave, duration                     : 33  ms (1.00 video frame)
Interleave, preload duration             : 512  ms
Service kind                             : Complete Main

Sinopsis Running Man 2010 Full Episode

Variety Show Running Man 1 Subtitle Indonesia
SubtitleIndonesia | English
Variety Show Running Man 2 Subtitle Indonesia
SubtitleIndonesia | English
Variety Show Running Man 3 Subtitle Indonesia
SubtitleIndonesia | English
Variety Show Running Man 4 Subtitle Indonesia
SubtitleIndonesia | English
Variety Show Running Man 5 Subtitle Indonesia
SubtitleIndonesia | English
Variety Show Running Man 6 Subtitle Indonesia
SubtitleIndonesia | English
Variety Show Running Man 7 Subtitle Indonesia
SubtitleIndonesia | English
Variety Show Running Man 8 Subtitle Indonesia
SubtitleIndonesia | English
Variety Show Running Man 9 Subtitle Indonesia
SubtitleIndonesia | English
Variety Show Running Man 10 Subtitle Indonesia
SubtitleIndonesia | English
Variety Show Running Man 11 Subtitle Indonesia
SubtitleIndonesia | English
Variety Show Running Man 12 Subtitle Indonesia
SubtitleIndonesia | English
Variety Show Running Man 13 Subtitle Indonesia
SubtitleIndonesia | English
Variety Show Running Man 14 Subtitle Indonesia
SubtitleIndonesia | English
Variety Show Running Man 15 Subtitle Indonesia
SubtitleIndonesia | English
Variety Show Running Man 16 Subtitle Indonesia
SubtitleIndonesia | English
Variety Show Running Man 17 Subtitle Indonesia
SubtitleIndonesia | English
Variety Show Running Man 18 Subtitle Indonesia
SubtitleIndonesia | English
Variety Show Running Man 19 Subtitle Indonesia
SubtitleIndonesia | English
Variety Show Running Man 20 Subtitle Indonesia
SubtitleIndonesia | English
Variety Show Running Man 21 Subtitle Indonesia
SubtitleIndonesia | English
Variety Show Running Man 22 Subtitle Indonesia
SubtitleIndonesia | English
Variety Show Running Man 23 Subtitle Indonesia
SubtitleIndonesia | English

Posted on:
Genre: Comedy, Reality
Year:
Duration: 85 Min
Country:
Release:
Last Air Date:28 Nov 2021
Number Of Episode:23
Network:
Director:

Leave a Reply

Your email address will not be published.